#TITLE:Eat 'Em Up!;
#SUBTITLE:PacMan;
#ARTIST:Hiroshi Ohkuba;
#TITLETRANSLIT:;
#SUBTITLETRANSLIT:;
#ARTISTTRANSLIT:;
#CREDIT:;
#BANNER:Eat 'Em Up.jpg;
#BACKGROUND:Eat 'Em Up-bg.jpg;
#LYRICSPATH:;
#CDTITLE:!pvwTitle.png;
#MUSIC:Eat 'Em Up.mp3;
#OFFSET:0.010;
#SAMPLESTART:37.770;
#SAMPLELENGTH:15.000;
#SELECTABLE:YES;
#BPMS:0.000=151.998;
#STOPS:;
#BGCHANGES:;
// cache tags:
#FIRSTBEAT:16.000;
#LASTBEAT:259.500;
#SONGFILENAME:Songs/Music V.I.P ^_^/Eat 'Em Up! (PsychoWhitey)/Eat 'Em Up.sm;
#HASMUSIC:1;
#HASBANNER:1;
#MUSICLENGTH:104.280;
// end cache tags

//---------------dance-single - BEGINNER----------------
#NOTES:
     dance-single:
     BEGINNER:
     Hard:
     10:
     1.000,1.000,1.000,1.000,0.518,472.000,202.000,106.000,0.000,2.000:

0000
0000
0000
0000
,
0000
0000
0000
0000
,
0000
0000
0000
0000
,
0000
0000
0000
0000
,
1000
0000
0100
0000
0010
0000
0100
0000
1000
0010
0000
0000
0100
0000
0000
0000
,
0001
0000
0100
0000
0010
0000
0100
0000
0001
0010
0000
0000
0100
0000
0000
0000
,
1000
0000
0100
0000
0001
0000
0100
0000
1000
0001
0000
0000
0100
0000
0000
0000
,
0000
0000
0000
0000
0000
0000
0000
0000
2002
3003
0000
0000
0000
0000
0000
0000
,
1010
0100
0011
0100
1100
0010
0110
0010
,
1001
0100
1010
0100
1100
0010
0101
0010
,
1010
0100
0011
0100
1010
0010
1100
0010
,
2001
3000
0000
2000
3000
0000
2002
3003
0000
0002
0003
0000
0002
0003
0000
0000
,
1001
0100
0110
0100
0011
0010
1100
0010
,
0101
0100
1010
0100
1001
0010
0110
0010
,
0011
0100
1010
0100
0011
0010
0101
0010
,
0120
0030
0000
0020
0030
0000
0220
0330
0000
0200
0300
0000
0200
0300
0000
0000
,
1010
0000
0100
0000
0011
0000
0100
1000
0100
0020
0030
1002
0000
0003
0010
0000
,
1000
0000
0100
0000
0001
0000
0100
0001
1000
0200
0310
0000
0102
0003
0110
0000
,
1000
0000
0000
0000
0000
0000
0000
0000
0100
0000
0000
0000
0000
0000
0000
0000
0001
0000
0000
0000
0000
0000
0000
0000
0100
0000
0000
0000
0001
0000
0000
0000
1000
0000
0000
0000
0200
0000
0000
0000
0300
0000
0000
0000
0000
0000
0000
0000
0202
0000
0000
0000
0000
0000
0000
0303
0022
0000
0000
0000
0000
0000
0000
0033
,
2002
0000
0000
0000
0000
0000
0000
3003
0202
0000
0000
0000
0000
0000
0000
0303
2002
0000
0000
0000
0000
0000
0000
3003
0022
0000
0000
0000
0000
0000
0000
0033
0202
0000
0000
0000
0000
0000
0000
0303
0022
0000
0000
0000
0000
0000
0000
0033
2200
0000
0000
0000
3300
0000
0000
0000
0000
0000
0000
0000
0000
0000
0000
0000
,
0001
0000
0100
0000
1000
0000
0100
1000
0001
0020
0030
2000
0000
3000
0010
0000
,
0001
0000
0100
0000
1000
0000
0100
1000
0010
0002
0103
0000
2010
3000
0110
0000
,
0001
0000
0000
0000
0000
0000
0000
0000
0100
0000
0000
0000
0000
0000
0000
0000
1000
0000
0000
0000
0000
0000
0000
0000
0100
0000
0000
0000
1000
0000
0000
0000
0001
0000
0000
0000
0020
0000
0000
0000
0030
0000
0000
0000
0000
0000
0000
0000
2020
0000
0000
0000
0000
0000
0000
3030
2200
0000
0000
0000
0000
0000
0000
3300
,
2002
0000
0000
0000
0000
0000
0000
3003
2020
0000
0000
0000
0000
0000
0000
3030
2002
0000
0000
0000
0000
0000
0000
3003
2200
0000
0000
0000
0000
0000
0000
3300
2020
0000
0000
0000
0000
0000
0000
3030
2200
0000
0000
0000
0000
0000
0000
3300
0022
0000
0000
0000
0033
0000
0000
0000
0000
0000
0000
0000
0000
0000
0000
0000
,
0011
0000
0101
0000
0011
0000
0101
0000
0011
0000
0101
0000
0022
0033
0101
0000
,
0011
0000
0101
0000
0011
0000
0101
0000
0000
0000
0101
0000
0210
0300
1010
0000
,
1100
1010
0101
0110
1001
0110
0000
1001
,
1001
0000
0011
1000
0101
0000
0011
0000
0002
0003
0000
0002
0003
0000
0002
0003
,
1100
0000
1010
0000
1100
0000
1010
0000
1100
0000
1010
0000
2200
3300
1010
0000
,
1100
0000
1010
0000
1100
0000
1010
0000
0000
0000
1010
0000
0120
0030
0101
0000
,
0011
0101
1010
0110
1001
0110
0000
1001
,
1001
0000
1010
0001
1100
0000
1001
0000
0100
0000
1000
0000
1001
0000
0010
0000
,
1100
1000
1100
1000
1100
0110
0010
0110
,
0110
1001
0110
1001
0100
0011
0110
1100
,
0110
1000
0110
1000
0110
0110
0010
0110
,
1100
0011
1010
0101
0010
0101
0011
1010
,
1100
1000
0110
1000
1100
0110
0100
0011
,
0110
1100
0110
0012
0000
0000
0000
0000
,
0000
0000
0000
0000
0000
0003
0000
0001
,
0000
1001
0000
1001
0110
1001
0110
0000
,
0010
0000
1000
0000
0100
0000
0001
0010
0100
1000
0000
0100
0000
0000
0000
0000
,
1000
0000
0010
0000
0100
0010
1000
0001
0000
0100
0000
0010
0000
1001
0000
0200
,
0000
0310
0000
0002
0000
1003
0000
0020
0000
0031
0000
2000
0000
3100
0000
0020
,
0000
1030
0000
0200
0000
0301
0000
0000
0110
0000
0011
0000
1100
0000
0011
0000
,
1100
0010
0001
0100
0010
1000
0100
0010
0000
0001
0010
0100
1000
0000
0010
0100
,
0000
0011
0000
0100
0000
1000
0000
0020
0000
0030
1000
0100
0000
0100
0000
2001
,
0000
0000
0001
0010
0100
0000
0001
0010
0100
0000
0001
0010
0001
0000
0000
3000
,
0010
0000
0000
0000
0000
0000
0000
0000
0000
0000
0000
0000
2200
0000
0000
0000
0000
0000
0000
0000
0000
0000
0000
3300
0202
0000
0000
0000
0000
0000
0000
0000
0000
0000
0000
0303
0202
0000
0000
0000
0000
0000
0000
0000
0000
0000
0000
0303
2002
0000
0000
0000
0000
0000
0000
0000
0000
0000
0000
3003
0000
0000
0000
0000
,
0100
0000
1000
0000
0001
0000
0100
1000
0100
0001
0000
2000
0000
0000
3000
0000
,
0001
0000
0100
0000
0010
0000
0100
0001
1000
0010
0000
0200
0000
0000
0300
0000
,
0010
0000
1000
0000
0001
0000
0100
0001
1000
0001
0000
0200
0000
0000
0300
0000
,
0012
0000
0000
0000
0000
0000
0000
0003
0100
0000
0000
0000
2000
0000
0000
0000
0000
0000
0000
0000
3000
0000
0000
0000
0102
0000
0000
0000
0000
0000
0000
0000
0000
0000
0000
0000
0000
0000
0000
0000
0000
0000
0000
0000
0000
0000
0000
0000
1013
0000
0000
0000
0000
0000
0000
0000
0000
0000
0000
0000
0000
0000
0000
0000
,
1000
0000
0100
0000
0010
0000
0100
0001
1000
0010
0000
2020
0000
0000
3030
0000
,
0001
0000
0100
0000
0010
0000
0100
1000
0001
0010
0000
0022
0000
0000
0033
0000
,
1000
0000
0100
0000
0001
0000
0100
0001
1000
0001
0000
0220
0000
0000
0330
0000
,
0000
0000
1001
0000
0000
1100
0000
0000
0101
0000
0000
0000
0200
0000
0000
0000
,
0000
0000
0000
0300
,
1100
0000
0100
0000
1010
0100
0010
0100
1001
0000
0010
0000
0101
1000
0010
0100
,
1001
0000
0100
0000
0110
0001
0100
0010
1001
0000
2000
0000
3110
0000
0000
0000
,
1001
0000
0100
0000
0011
1000
0100
0010
1001
0000
0100
0000
0110
0100
0010
0100
,
1001
0000
0100
0000
0110
0001
0100
1000
0011
0000
0000
0000
2020
3030
0202
0303
,
1001
0000
0010
0000
1001
0100
0010
0100
1010
0000
0100
0000
0101
0010
0100
0010
,
1001
0000
0010
0000
0101
1000
0100
0010
1100
0000
0000
0000
1001
0220
0330
0000
,
0101
0000
0100
0000
1010
0100
0010
1000
0011
0000
0010
0000
1100
0001
0010
0100
,
1001
0000
0100
0000
0101
0010
1000
0010
0110
0000
0011
0000
0110
0000
1100
0000
;
